Инсценировка сказки черная курица

Автор: Mikec_nvnews Коментариев: 29 Просмотров: 125  

Exact Audio Copy V1.0 beta 3 from 29. August 2011
Отчёт EAC об извлечении, выполненном 8. ноября 2012, 13:25
Юрий Яковлев, Маргарита Корабельникова, Татьяна Шатилова, Анатолий Щукин, Лев Дуров, Семён Самодур / Чёрная курица (Мелодия, MEL CD 50 01502)
Дисковод: ASUS DRW-1814BL Adapter: 0 ID: 0
Режим чтения : Достоверность
Использование точного потока : Да
Отключение кэша аудио : Да
Использование указателей C2 : Нет
Коррекция смещения при чтении : 6
Способность читать области Lead-in и Lead-out : Нет
Заполнение пропущенных сэмплов тишиной : Да
Удаление блоков с тишиной в начале и конце : Нет
При вычислениях CRC использовались нулевые сэмплы : Да
Интерфейс : Встроенный Win32-интерфейс для Win NT/2000
Выходной формат : Внутренние WAV-операции
Формат сэмплов : 44.100 Гц; 16 бит; стерео
TOC извлечённого CD
Трек | Старт | Длительность | Начальный сектор | Конечный сектор
---------------------------------------------------------------------
1 | 0:00.00 | 12:41.28 | 0 | 57102
2 | 12:41.28 | 12:49.52 | 57103 | 114829
3 | 25:31.05 | 12:17.00 | 114830 | 170104
4 | 37:48.05 | 11:58.57 | 170105 | 224011
Характеристики диапазона извлечения и сообщения об ошибках
Выбранный диапазон
Имя файла G:\ley-barmaley\музыкальные сказки на сайте lossless-galaxy.ru\Чёрная курица (Мелодия, MEL CD 50 01502).wav
Пиковый уровень 93.3 %
Скорость извлечения 6.8 X
Качество диапазона 99.9 %
CRC теста 6C2CFCDC
CRC копии 6C2CFCDC
Копирование... OK
Ошибок не произошло
AccurateRip: сводка
Трек 1 : извлечено точно (доверие 1) [9A706DC0] (AR v1)
Трек 2 : извлечено точно (доверие 1) [13C7225C] (AR v1)
Трек 3 : извлечено точно (доверие 1) [C496368A] (AR v1)
Трек 4 : извлечено точно (доверие 1) [BA890E89] (AR v1)
Все треки извлечены точно
Конец отчёта
---- CUETools DB Plugin V2.1.3
[CTDB TOCID: Exs_TjNfV3jUpA695anHY._PJn8-] disk not present in database, Submit result: Exs_TjNfV3jUpA695anHY._PJn8- has been uploaded
==== Контрольная сумма отчёта 6524F4B073EAB01CFFB14013C65C0651966175031DB3F942B3C03DD9694AE58F ====

Источник: http://rutracker.org/forum/viewtopic.php?t=4243401

подробная информацыя:

Дата добавления 03.12.2014, 16:01
Категория

Авторизация