Повар на колесах chef 2014

Автор: BettyMoreBetter Коментариев: 25 Просмотров: 1477  

1, 2, 3, 4  След.

АвторСообщение

MooN_WalkeR


Повар на колесах / Chef
«Starting from scratch never tasted so good»
-Страна: США / Aldamisa Entertainment, Kilburn Media
Жанр: комедия, драма, семейный
Год выпуска: 2014
Продолжительность: 01:49:54
Перевод: Профессиональный (дублированный) лицензия R5
Cубтитры: нет
Режиссёр: Джон Фавро / Jon Favreau
В ролях: Джон Фавро, Джон Легуизамо, Бобби Каннавале, Эмджей Энтони, Скарлетт Йоханссон, Дастин Хоффман, София Вергара, Оливер Платт, Эми Седарис, Роберт Дауни мл.
Описание: Сюжет фильма разворачивается вокруг шеф-повара Карла Каспера, потерявшего работу в известном ресторане Лос-Анджелеса. Вместе с сыном и бывшим напарником Карл решает организовать сеть закусочных на колесах, чтобы отыскать потерянное кулинарное вдохновение и попутно наладить отношения с семьей.-Рейтинг
imdb.com: 7.30 (51 124)
kinopoisk.ru: 7.070 (11 581)
MPAA: - лицам до 17 лет обязательно присутствие взрослого-Сэмпл: http://multi-up.com/1006148-Качество видео: BDRip [Chef.2014.mkv / kinozal]
Формат видео: AVI
Видео: XviD build 65, 720x304 (2.37:1), 25.000 fps, 1450 kbps avg, 0.265 bit/pixel
Аудио: 48 kHz, AC3 Dolby Digital, 3/2 (L,C,R,l,r) + LFE ch, 448 kbps avg (Dub)
-

MediaInfo

Общее
Полное имя : D:\Chef.2014.Dub.BDRip.1,46Gb.XviD.AC3.avi
Формат : AVI
Формат/Информация : Audio Video Interleave
Размер файла : 1,46 Гбайт
Продолжительность : 1 ч. 49 м.
Общий поток : 1907 Кбит/сек
Название фильма : Chef 2014
Режиссёр : Jon Favreau
Дата записи : 14.10.2014
Программа кодирования : VirtualDubModRus 1.5.10.2 (build 2542/release)
Библиотека кодирования : VirtualDubMod build 2542/release
Правообладатель : Rutracker.org
Примечание : MooN_WalkeR
Видео
Идентификатор : 0
Формат : MPEG-4 Visual
Профиль формата : Advanced Simple@L5
Параметр BVOP формата : 1
Параметр QPel формата : Нет
Параметр GMC формата : Без точки перехода
Параметр матрицы формата : Выборочная
Идентификатор кодека : XVID
Идентификатор кодека/Подсказка : XviD
Продолжительность : 1 ч. 49 м.
Битрейт : 1450 Кбит/сек
Ширина : 720 пикселей
Высота : 304 пикселя
Соотношение сторон : 2,35:1
Частота кадров : 25,000 кадров/сек
Цветовое пространство : YUV
Субдискретизация насыщенности : 4:2:0
Битовая глубина : 8 бит
Тип развёртки : Прогрессивная
Метод сжатия : С потерями
Бит/(ПикселиКадры) : 0.265
Размер потока : 1,11 Гбайт (76%)
Библиотека кодирования : XviD 65
Аудио
Идентификатор : 1
Формат : AC-3
Формат/Информация : Audio Coding 3
Расширение режима : CM (complete main)
Параметр Endianness формата : Big
Идентификатор кодека : 2000
Продолжительность : 1 ч. 49 м.
Вид битрейта : Постоянный
Битрейт : 448 Кбит/сек
Каналы : 6 каналов
Расположение каналов : Front: L C R, Side: L R, LFE
Частота : 48,0 КГц
Битовая глубина : 16 бит
Метод сжатия : С потерями
Размер потока : 352 Мбайт (23%)
Выравнивание : Разделение по промежуткам
Продолжительность промежутка : 40 мс. (1,00 видеокадр)
Время предзагрузки промежутка : 500 мс.
Заголовок : Dub R5

Скриншоты

Download

Сайт не распространяет и не хранит электронные версии произведений, а лишь предоставляет доступ к создаваемому пользователями каталогу ссылок на торрент-файлы, которые содержат только списки хеш-сумм

 

MooN_WalkeR


 

bot


 

MESSERF1


Фильм очень понравился.

 

агент смит


Спасибо.

 

MooN_WalkeR


агент смит
Пожалуйста!
 

formosa


На голодный желудок есть вероятность фильм не досмотреть . И это его единственный минус.
 

tonado2


хороший фильм сказка...позитив поймаете...качайте)

 

error_41


кино вообще не очем, шлак, жаль потраченного времени

 

BIATA


Давно не видела такого легкого и позитивного кино) Хоть и герой балбес, смотреть интересно. Кто хочет улыбаться- смотрите!

 

Волк988


Добрый, хороший фильм. Для вечернего просмотра всей семьей очень даже подходит.

 

ИГОРЬ-45


почему вергу под чичолину загримировали?!!!
а в целом фильм нормальный и еда приличная.
 

manaca96


Давно не смотрел столь пустого и не интересного фильма.... Сюжета ноль, истории ноль, развития главных героев нет...смотрел несколько дней.....УЖАС....ПРОСТО ЕСТЬ ГГ- ПОвар ...и мы смотрим как он готовит.... не учится этому,а просто готовит...и да еще сюда попытались впихнуть проблемы семейные...такие как взаимопонимание отца и растущего сына.....УЖаснейший фильм 2014 года...не зря его в кино всего неделю или 5 дней у нас в Питере показывали

 

mitri42


отличная работа оператора и красивая еда....слюни текут...сюжет на слабоват....

 

Johnny-T


manaca96 писал(а):

65488390Давно не смотрел столь пустого и не интересного фильма.... Сюжета ноль, истории ноль, развития главных героев нет...смотрел несколько дней.....УЖАС....

Трансформеры 4 не ?
 

Lepikhin_av


Вечерок можно скоротать. Не понравилась реклама грёбаного фаст фуда..

 

frequenzmänchen


Очень лёгкий фильм... Просто проглотил )) Всё прекрасно, СПАСИБО РАЗДАЮЩЕМУ !!!!!! Недовольных просим пройти в зал "французкой" кухни.
P.S. Не ожидал, приятный позитив... ))

 

btMoxHypKa


Шикарный фильм. Приятно смотреть, как мужчины заняты любимым делом.

 

nuska123


Очень интересный фильм, советую всем.
 

MooN_WalkeR


frequenzmänchen
На здоровье!
 

Bhaar


Спасибо за хороший и неглупый фильм.

 

Sasha_2


Достаточно простой, но приятный и добротно сделанный фильм, который кроме главных героев открывает нам США с непривычной стороны. Сильно отличается от обычного голливуда. Единственно, реклама твиттера слегка раздражала.

 

alien-shot


Отличный фильм! Очень мотивирует.

 

valekas


Фильм просто невероятная скука. До того же "Вкус жизни" ему как до луны.

 

Zotac666


Ё-МОЁ!! Ребята! Что ж делать то? Кто им вообще разрешил так издеваться над зрителями?! Сценарий элементарно не доработан, такое чувство, что сильно не попадая под срок сдачи, его напросто обрубили на половину... И закончили нелепой концовкой, которая совершенно ничего не доносит до зрителя, как собственно и весь этот проходнячковый ..

 

vitaliy9


Отличный фильм! Звук только сильто тихий. Спасибо за раздачу!

 

Владимир80


это вообще не комедия, это унылое говно.
не тратьте свое время.
2 из 10

 

baklu


Где комедия, где сюжет?
Фильм вообще о чём?
Уныло, не интересно, ни о чём.
Просто про какого-то фастфудчика- неудачника.

 

paton


Я так понимаю, мнения разделились между адекватными людьми и подростками...

 

i.S.Alex


отличный фильм, чтобы скоротать вечерок
спасибо!
 

Источник: http://rutracker.org/forum/viewtopic.php?t=4845265

подробная информацыя:

Дата добавления 03.12.2014, 07:25
Категория